Cue

Cue 파일은 컴팩트 디스크(CD)/DVD트랙 정보를 가지는 메타데이터 파일이다. 확장자는 «.cue».

1 사용[편집]

추출한 파일을 다시 굽거나 오디오 파일의 경우 멀티 트랙 등을 구성하고 싶을 때 사용할 수가 있다. 또, 프로그램에 따라서 MP4 파일의 챕터 구성에도 이용할 수가 있는데, Cue 파일의 트랙 설정을 이용하여 각 챕터별로 분기시킬 수가 있다.

2 문법[편집]

파일은 단순한 텍스트로 만들어지며, 프로그램이나 사용자가 만들어내게 된다.

2.1 주요 명령[편집]

FILE
파일 이름과 함께 사용되는 형식(MP3, WAVE…)이 들어간다.
TRACK
트랙 순번과 함께 종류(AUDIO…)가 들어간다.
INDEX
트랙 인덱스로 '분:초:프레임'이라는 구성으로 기술되는데, 시간 항목은 별도로 두지 않으며 분으로 통합된다. 즉 1시간이면 '60:00:00'이다. 보통 'INDEX 01' 값을 가지지만, 프리갭이 있다면 'INDEX 00'이 들어갈 것이다.
REM
설명문의 일종이지만 프로그램에 따라서는 명령으로 참조할 수도 있다.

3 예제[편집]

다음은 Symphonix의 Music Prostitute 앨범에 대한 트랙을 Cue로 구성하여 본 것이다.

REM GENRE Electronic
REM DATE 2006
FILE "Symphonix - Music Prostitute.wav" WAVE
  TRACK 01 AUDIO
    TITLE "Burning Groove"
    PERFORMER "Symphonix"
    INDEX 01 00:00:00
  TRACK 02 AUDIO
    TITLE "Smooth Vibes"
    PERFORMER "Symphonix"
    INDEX 01 08:23:00
  TRACK 03 AUDIO
    TITLE "Ping Pong"
    PERFORMER "Symphonix"
    INDEX 01 15:29:00
  TRACK 04 AUDIO
    TITLE "Rhythm in Motion"
    PERFORMER "Symphonix"
    INDEX 01 23:22:00
  TRACK 05 AUDIO
    TITLE "You as Well"
    PERFORMER "Symphonix"
    INDEX 01 32:10:00
  TRACK 06 AUDIO
    TITLE "Music Prostitute"
    PERFORMER "Symphonix"
    INDEX 01 40:48:00
  TRACK 07 AUDIO
    TITLE "Paradise"
    PERFORMER "Symphonix"
    INDEX 01 48:30:00
  TRACK 08 AUDIO
    TITLE "Funky Hostage"
    PERFORMER "Symphonix"
    INDEX 01 56:57:00
  TRACK 09 AUDIO
    TITLE "Multi Engine"
    PERFORMER "Symphonix"
    INDEX 01 64:41:00